<?xml version="1.0" standalone="no"?>
<!DOCTYPE svg PUBLIC "-//W3C//DTD SVG 1.1//EN" "http://www.w3.org/Graphics/SVG/1.1/DTD/svg11.dtd" >
<svg xmlns="http://www.w3.org/2000/svg">
<metadata>
This is a custom SVG webfont generated by Font Squirrel.
Copyright   : Copyright c 2005 Dalton Maag Ltd All rights reserved This font is for exclusive use by Vodafone only This font may not be altered in any way without prior consent of Dalton Maag Ltd DaMa is a trademark of Dalton Maag Ltd
Designer    : Dalton Maag Ltd
Foundry     : c Dalton Maag Ltd
Foundry URL : httpwwwdaltonmaagcom
</metadata>
<defs>
<font id="VodafoneRgBold" horiz-adv-x="1050" >
<font-face units-per-em="2048" ascent="1638" descent="-410" />
<missing-glyph horiz-adv-x="389" />
<glyph unicode=" "  horiz-adv-x="389" />
<glyph unicode="&#x09;" horiz-adv-x="389" />
<glyph unicode="&#xa0;" horiz-adv-x="389" />
<glyph unicode="!" horiz-adv-x="468" d="M76 143.5q0 65.5 44 115.5t116 50q70 0 113.5 -50t43.5 -115.5t-44 -116t-113 -50.5q-72 0 -116 50.5t-44 116zM109 432v934h258v-934h-258z" />
<glyph unicode="&#x22;" horiz-adv-x="880" d="M123 760v606h242v-606h-242zM514 760v606h244v-606h-244z" />
<glyph unicode="#" horiz-adv-x="1120" d="M0 422v244h270v186h-270v242h270v272h232v-272h176v272h229v-272h273v-242h-273v-186h273v-244h-273v-270h-229v270h-176v-270h-232v270h-270zM502 666h176v186h-176v-186z" />
<glyph unicode="$" d="M33 182l164 199q66 -80 143.5 -124t165.5 -44q92 0 147.5 40t55.5 114q0 76 -49.5 117.5t-141.5 80.5l-164 66q-80 33 -143.5 81t-102 118.5t-38.5 179.5q0 125 63 207q63 86 145 121.5t154 45.5v302h178v-295q106 -14 200.5 -67.5t147.5 -139.5l-163 -168 q-70 78 -134.5 110.5t-136.5 32.5q-88 0 -139 -37t-51 -102q0 -35 17.5 -61.5t43 -47t56 -35t55.5 -24.5l165 -70q83 -35 150.5 -86t110.5 -126.5t43 -192.5q0 -121 -62 -213q-55 -86 -136 -128t-167 -56v-265h-178v262q-129 16 -232.5 69.5t-166.5 135.5z" />
<glyph unicode="%" horiz-adv-x="1439" d="M8 1061q0 76 26.5 136t73 102t105.5 62.5t121 20.5q121 0 203 -65q84 -66 104 -139q20 -86 21 -115q0 -61 -20.5 -118.5t-61.5 -102.5t-102.5 -73t-143.5 -28t-142.5 28t-101.5 73t-61.5 102.5t-20.5 116.5zM20 135l1278 1247l136 -141l-1278 -1253zM215 1065 q0 -27 7 -53.5t21.5 -47t36 -34t52.5 -13.5q45 0 69.5 28t36 62.5t11.5 57.5q0 63 -35 104t-82 41q-55 0 -86 -44t-31 -101zM780 303q0 74 27 134.5t73 102.5t106.5 63.5t123.5 21.5q119 0 201 -66q61 -57 92 -125.5t31 -128.5q0 -61 -20.5 -118.5t-61.5 -102.5 t-101.5 -72.5t-142.5 -27.5t-143.5 27.5t-102.5 72.5t-61.5 102.5t-20.5 116.5zM989 305q0 -53 29 -99t88 -46t88 46t29 99t-29 99.5t-88 46.5t-88 -46.5t-29 -99.5z" />
<glyph unicode="&#x26;" horiz-adv-x="1277" d="M27 373q0 123 65.5 232.5t206.5 195.5l55 33q-39 51 -69.5 109t-30.5 132q0 76 31.5 132.5t82 92t112 51t114.5 15.5q125 0 206 -46t156 -146l-163 -148q-47 66 -93.5 103.5t-101.5 37.5q-47 0 -73.5 -22.5t-26.5 -61.5q0 -53 57 -122l272 -375l209 305l174 -158 l-237 -344l284 -389h-296l-127 176q-76 -92 -144.5 -136t-132 -53.5t-111.5 -9.5q-111 0 -190.5 33t-130.5 88.5t-74.5 126t-23.5 148.5zM279 385q0 -86 45 -137t131 -51q70 0 129 48t108 122l-213 290l-43 -24q-74 -43 -115.5 -106.5t-41.5 -141.5z" />
<glyph unicode="'" horiz-adv-x="487" d="M123 760v606h242v-606h-242z" />
<glyph unicode="(" horiz-adv-x="645" d="M78 684q0 215 69 385q70 174 168.5 275.5t196.5 156.5l113 -145q-141 -104 -216 -270t-75 -401.5t74.5 -401.5t216.5 -271l-113 -145q-98 55 -178 137t-136.5 185.5t-88 228.5t-31.5 266z" />
<glyph unicode=")" horiz-adv-x="645" d="M20 12q141 104 216 270.5t75 402t-74.5 401t-216.5 270.5l113 145q82 -45 148.5 -106.5t117.5 -143.5q94 -150 131 -292t37 -275q0 -215 -69.5 -387t-168 -273.5t-196.5 -156.5z" />
<glyph unicode="*" horiz-adv-x="884" d="M53 1235l111 166l178 -121v205h193v-205l186 121l113 -166l-216 -137l209 -137l-100 -177l-192 125v-215h-193v215l-186 -125l-99 177l211 135z" />
<glyph unicode="+" d="M45 563v225h373v412h213v-412h373v-225h-373v-405h-213v405h-373z" />
<glyph unicode="," horiz-adv-x="417" d="M53 139q0 57 37 101.5t107 44.5q72 0 110.5 -51.5t38.5 -131.5q0 -76 -45 -169t-156 -179l-67 92q35 29 65.5 69t34.5 75q-49 4 -87 46t-38 103z" />
<glyph unicode="-" horiz-adv-x="643" d="M74 412v243h493v-243h-493z" />
<glyph unicode="." horiz-adv-x="432" d="M74 125q0 57 35.5 103t107.5 46t106.5 -46t34.5 -103q0 -55 -34.5 -101.5t-106.5 -46.5t-107.5 46.5t-35.5 101.5z" />
<glyph unicode="/" horiz-adv-x="1056" d="M0 51l864 1518l193 -109l-860 -1526z" />
<glyph unicode="0" d="M37 676q0 203 59 375q61 168 177 248.5t253 80.5q188 0 305 -131q119 -125 150 -291q33 -152 33 -282q0 -123 -24.5 -248t-82 -226.5t-150.5 -166t-231 -64.5q-139 0 -232 64.5t-150.5 166t-82 226.5t-24.5 248zM303 678q0 -98 13.5 -183t40 -149.5t68.5 -101.5t101 -37 h6q62 0 104 45q44 47 69.5 118.5t34.5 154.5q8 68 8 127v26q0 123 -18.5 211t-49.5 144.5t-71 84t-83 27.5h-4q-89 0 -145 -92q-57 -94 -66 -199q-4 -53 -7 -97q-2 -26 -2 -50q0 -15 1 -29z" />
<glyph unicode="1" d="M129 1083l428 273h203v-1356h-266v1040l-244 -155z" />
<glyph unicode="2" d="M57 1182q47 53 138.5 105t175.5 72.5t143 20.5q145 0 246 -63q104 -63 144 -156.5t40 -185.5q0 -133 -50 -224.5t-159 -170.5l-205 -152q-106 -80 -140 -113.5t-34 -76.5h605v-238h-877v162v17q0 89 38 173q42 92 120 144l284 219q82 57 113 110.5t31 130.5 q0 86 -51.5 134.5t-143.5 48.5q-57 0 -105 -19.5t-86 -45t-64 -51.5l-38 -38z" />
<glyph unicode="3" d="M31 129l114 215q72 -63 154 -102t180 -39q125 0 181.5 63.5t56.5 155.5q0 123 -79 175t-210 52q-59 0 -117 -8v168q41 72 70 106q41 53 98 115l69 67q28 26 38 36h-523v233h855v-227q-80 -55 -148 -113q-86 -70 -126 -116t-56 -72h15q129 0 220 -66q84 -61 121 -149 t37 -189q0 -117 -40 -203t-107.5 -144t-158.5 -87t-192 -29q-147 0 -259.5 44t-192.5 114z" />
<glyph unicode="4" d="M53 266v203l613 897h211v-864h133v-236h-133v-266h-256v266h-568zM332 502h289v438z" />
<glyph unicode="5" d="M35 104l106 228q72 -55 149 -89t169 -34h13q55 0 98 15q48 17 80 50t47 76q14 38 14 81v11q0 125 -78 182.5t-225 57.5q-90 0 -252 -35v719h757v-233h-526v-228q16 4 59 4q248 0 382.5 -111.5t134.5 -346.5q0 -186 -86 -299q-84 -115 -201 -148q-106 -33 -219 -33 t-205 26t-141 53t-76 54z" />
<glyph unicode="6" d="M86 500q0 137 31.5 266t103.5 252q39 70 90 124t115 95q129 82 249 105.5t214 23.5l59 -205h-14q-188 0 -309 -65q-119 -63 -162 -142q-41 -78 -55 -123q39 25 85 39.5t103 14.5h9q95 0 166 -42q75 -44 123 -114t67.5 -151.5t19.5 -155.5q0 -84 -27.5 -165t-83 -144.5 t-139.5 -102.5t-194 -39q-131 0 -246 72q-111 72 -158 195t-47 262zM358 475q0 -104 31 -172q31 -66 74 -81t78 -15q78 0 125 57.5t47 155.5q0 111 -50.5 173t-130.5 62q-47 0 -91 -15t-70 -32q-13 -37 -13 -133z" />
<glyph unicode="7" d="M84 1133v233h903v-223q-207 -289 -332 -566.5t-174 -576.5h-274q41 287 165 567.5t322 565.5h-610z" />
<glyph unicode="8" d="M80 383q0 68 29 141q31 74 68.5 115t70.5 61q-78 59 -113 138.5t-35 152.5q0 115 68 211q68 98 163 138t195 40q139 0 242 -67q76 -49 119 -120t54 -120t11 -78q0 -74 -36.5 -156.5t-110.5 -136.5q57 -35 97 -92t54.5 -119.5t14.5 -105.5q0 -78 -30 -151.5t-86 -132 t-139 -94.5t-189.5 -36t-189.5 35t-140.5 93.5t-87 132t-29.5 151.5zM338 389q0 -39 14 -73q16 -38 44 -64.5t62 -39.5q26 -10 52 -10q8 0 16 1q92 0 140.5 57t48.5 135t-49.5 135.5t-141.5 57.5q-88 0 -137 -57t-49 -142zM360 985v-10q0 -33 12 -64q13 -35 36.5 -61.5 t54.5 -39.5q23 -10 48 -10q8 0 15 1q61 0 103.5 45t53.5 86q10 35 10 50q0 62 -34 105t-73 57.5t-60 14.5q-51 0 -98 -35q-43 -33 -55.5 -70.5t-12.5 -68.5z" />
<glyph unicode="9" d="M74 930q0 141 65 250q66 111 167.5 155.5t211.5 44.5q154 0 262.5 -91t145.5 -218q20 -63 27.5 -120.5t7.5 -110.5q0 -182 -47.5 -339t-138.5 -273.5t-226 -183.5t-311 -67q-49 0 -74 5l26 219q18 -4 43 -4q174 0 274.5 90t139.5 256q-35 -25 -86 -39.5t-102 -14.5 q-94 0 -166 33t-121 92.5t-73.5 139.5t-24.5 176zM344 932q0 -92 46 -152.5t132 -60.5q45 0 85 9t77 32q12 61 12 112q0 117 -41 179.5t-82 78t-57 15.5q-70 0 -113 -47t-51 -93t-8 -73z" />
<glyph unicode=":" horiz-adv-x="432" d="M74 125q0 57 35.5 103t107.5 46t106.5 -46t34.5 -103q0 -55 -34.5 -101.5t-106.5 -46.5t-107.5 46.5t-35.5 101.5zM74 852q0 57 35.5 103t107.5 46t106.5 -46t34.5 -103q0 -55 -34.5 -101t-106.5 -46t-107.5 46t-35.5 101z" />
<glyph unicode=";" horiz-adv-x="423" d="M53 139q0 57 37 101.5t107 44.5q72 0 110.5 -51.5t38.5 -131.5q0 -76 -45 -169t-156 -179l-67 92q35 29 65.5 69t34.5 75q-49 4 -87 46t-38 103zM74 852q0 57 35.5 103t107.5 46t106.5 -46t34.5 -103q0 -55 -34.5 -101t-106.5 -46t-107.5 46t-35.5 101z" />
<glyph unicode="&#x3c;" d="M45 596v170l883 313l76 -221l-512 -174l532 -192l-70 -228z" />
<glyph unicode="=" d="M45 317v226h959v-226h-959zM45 758v225h959v-225h-959z" />
<glyph unicode="&#x3e;" d="M27 492l532 192l-512 174l78 221l881 -313v-170l-910 -332z" />
<glyph unicode="?" horiz-adv-x="821" d="M-10 1171q57 78 137 127q86 55 158.5 76t134.5 21q147 0 242 -66q68 -53 100.5 -107.5t40.5 -103.5t8 -76q0 -98 -43 -176t-123 -164q-131 -137 -131 -221v-49h-248v86q0 84 40 149.5t122 147.5q49 49 87 99.5t38 121.5q0 63 -41 100.5t-117 37.5q-55 0 -118.5 -38 t-131.5 -124zM231 143.5q0 65.5 44 115.5t114 50q72 0 116 -50t44 -115.5t-44 -116t-116 -50.5q-70 0 -114 50.5t-44 116z" />
<glyph unicode="@" horiz-adv-x="1476" d="M98 479q0 266 105 473q109 211 272 293q168 88 348 88q211 0 334 -86q125 -82 158 -192q35 -115 35 -189v-796h-234v49q-41 -35 -97 -52.5t-106 -17.5q-174 0 -272 116t-98 320q0 145 59 248q45 74 105.5 113t115 51t82.5 12q72 0 123 -22.5t86 -42.5q0 123 -69.5 199.5 t-231.5 76.5q-123 0 -213 -54t-148.5 -143t-87 -205t-28.5 -239q0 -53 8 -116.5t30.5 -127t62.5 -124t103.5 -106.5t153.5 -73.5t211 -27.5q154 0 271.5 19.5t205.5 51.5l54 -223q-80 -29 -227.5 -51.5t-323.5 -22.5q-250 0 -413 88.5t-247 227.5q-82 141 -104.5 263 t-22.5 222zM776 494q0 -119 46 -176.5t118 -57.5q57 0 98 15.5t76 52.5v311q-102 59 -176 59q-162 1 -162 -204z" />
<glyph unicode="A" horiz-adv-x="1245" d="M0 0l492 1366h260l493 -1366h-268l-94 274h-523l-92 -274h-268zM440 506h365l-182 538z" />
<glyph unicode="B" horiz-adv-x="1163" d="M150 0v1366h462q150 0 258 -68q104 -66 140 -153q31 -84 30 -148q0 -92 -41 -159.5t-116 -114.5q104 -39 167.5 -124t63.5 -214q0 -109 -58.5 -207t-176.5 -145q-43 -16 -95.5 -24.5t-101.5 -8.5h-532zM410 807h127q111 0 145 18q49 25 71.5 63t22.5 79q0 49 -30.5 91 t-90.5 62q-4 0 -19 2t-36 4l-43 4q-23 2 -41 3h-106v-326zM410 233h186q68 0 106.5 6.5t63.5 20.5q43 25 62.5 60.5t19.5 74.5q0 45 -24.5 88t-71.5 70q-31 16 -72 23.5t-88 7.5h-182v-351z" />
<glyph unicode="C" horiz-adv-x="1169" d="M88 678q0 184 50 318t132 223.5t187.5 132.5t216.5 43q139 0 243.5 -51.5t151.5 -108.5t59 -82l-192 -162q-10 18 -29.5 46t-51.5 53.5t-76 44t-101 18.5q-66 0 -124 -27.5t-103 -86t-71 -147.5t-26 -214q0 -223 96.5 -343t256.5 -120q117 0 200.5 40t120.5 77l84 -228 q-47 -55 -189.5 -94t-246.5 -39q-129 0 -236.5 45t-186.5 134.5t-122 221.5t-43 306z" />
<glyph unicode="D" horiz-adv-x="1286" d="M150 1366h385q74 0 163.5 -12.5t171.5 -48.5q129 -63 209 -189q82 -123 103 -239q20 -137 20 -187q0 -178 -70.5 -330.5t-145.5 -214t-118 -75.5q-139 -70 -323 -70h-395v1366zM412 246h106q143 0 234 51q94 51 139 156.5t45 224.5q0 117 -41 220t-127 161 q-45 31 -111.5 46t-132.5 15h-112v-874z" />
<glyph unicode="E" horiz-adv-x="1140" d="M150 0v1366h890v-248h-628v-311h520v-248h-520v-311h673v-248h-935z" />
<glyph unicode="F" horiz-adv-x="1042" d="M150 0v1366h882v-248h-620v-323h495v-244h-495v-551h-262z" />
<glyph unicode="G" horiz-adv-x="1245" d="M88 678q0 184 47 318t127 223.5t183.5 132.5t218.5 43q180 0 290.5 -66.5t167.5 -171.5l-180 -166q-39 68 -110.5 115t-165.5 47h-6q-105 0 -179 -80q-78 -80 -104 -192q-14 -57 -20 -108q-4 -36 -3 -69v-26q0 -156 56 -272q31 -66 70.5 -104t81.5 -57.5t80 -24.5t65 -5 q82 0 132 9t58 14v245h-213v236h459v-658q-51 -33 -168 -61.5t-283 -28.5q-133 0 -244.5 47.5t-191.5 138.5t-124 222t-44 299z" />
<glyph unicode="H" horiz-adv-x="1341" d="M150 0v1366h262v-541h516v541h262v-1366h-262v578h-516v-578h-262z" />
<glyph unicode="I" horiz-adv-x="563" d="M150 0v1366h262v-1366h-262z" />
<glyph unicode="J" horiz-adv-x="870" d="M41 53l76 219q18 -23 66 -41t80 -22t56 -4q72 0 114 35.5t42 136.5v989h262v-991q0 -205 -97 -304.5t-290 -99.5q-109 0 -190.5 29.5t-118.5 52.5z" />
<glyph unicode="K" horiz-adv-x="1206" d="M150 0v1366h262v-551h137q39 0 67.5 19.5t59.5 91.5l194 440h277l-215 -477q-29 -61 -55.5 -94t-65.5 -56q47 -25 77 -61.5t52 -95.5l231 -582h-284l-168 426q-33 82 -63.5 121t-90.5 39h-153v-586h-262z" />
<glyph unicode="L" horiz-adv-x="1087" d="M150 0v1366h262v-1118h635v-248h-897z" />
<glyph unicode="M" horiz-adv-x="1536" d="M117 0l65 1366h269l333 -971l299 971h271l65 -1366h-260l-37 805l-252 -813h-174l-282 821l-37 -813h-260z" />
<glyph unicode="N" horiz-adv-x="1351" d="M150 0v1366h268l526 -852v852h258v-1366h-229l-563 903v-903h-260z" />
<glyph unicode="O" horiz-adv-x="1376" d="M88 684q0 131 37 259t111.5 228.5t186.5 162t261 61.5q209 0 354.5 -123t196.5 -291q53 -176 53 -297q0 -131 -38 -259t-112.5 -228.5t-188 -163t-265.5 -62.5q-150 0 -261.5 62.5t-186 163t-111.5 228.5t-37 259zM352 684q0 -90 21.5 -175t63.5 -150.5t104.5 -104.5 t142.5 -39q82 0 151.5 44t104.5 104.5t51 117.5q31 113 31 203q0 135 -49 252q-47 117 -127 167t-162 50q-80 0 -142.5 -39t-104.5 -104.5t-63.5 -150.5t-21.5 -175z" />
<glyph unicode="P" horiz-adv-x="1124" d="M150 0v1366h409q98 0 182 -13.5t162 -52.5q98 -49 145.5 -146t47.5 -208q0 -109 -47.5 -208t-101.5 -144t-81 -51q-70 -29 -139.5 -40t-140.5 -11h-178v-492h-258zM408 727h145q55 0 101 6t79 23q55 27 80 74t25 100q0 57 -28 106t-83 70q-72 25 -164 24h-155v-403z" />
<glyph unicode="Q" horiz-adv-x="1396" d="M88 684q0 131 37 259t111.5 228.5t186.5 162t261 61.5q209 0 354.5 -123t196.5 -291q53 -176 53 -297q0 -92 -18.5 -182t-55.5 -172q98 -86 154.5 -151.5t69.5 -86.5l-150 -153q-10 18 -61 74.5t-131 131.5q-74 -80 -175.5 -127t-236.5 -47q-150 0 -261.5 62.5t-186 163 t-111.5 228.5t-37 259zM352 684q0 -90 21.5 -175t63.5 -150.5t104.5 -104.5t142.5 -39q121 0 207 86q-72 47 -213 109l82 192q66 -23 126 -53.5t107 -63.5q29 98 29 199q0 135 -49 252q-47 117 -127 167t-162 50q-80 0 -142.5 -39t-104.5 -104.5t-63.5 -150.5t-21.5 -175z " />
<glyph unicode="R" horiz-adv-x="1204" d="M150 0v1366h477q152 0 268.5 -63.5t155.5 -157.5q35 -90 34 -184q0 -104 -47 -192.5t-145 -147.5q57 -29 92 -82.5t70 -165.5l102 -373h-272l-103 342q-25 68 -45 111q-14 31 -50 45t-81 14h-198v-512h-258zM408 748h184q233 0 233 186q0 98 -55 146t-178 48h-184v-380z " />
<glyph unicode="S" horiz-adv-x="1067" d="M61 106l111 228q18 -16 51 -39t77 -43.5t100.5 -33.5t123.5 -13q98 0 154.5 43t56.5 114q0 86 -55 134q-59 49 -242 112q-152 43 -239 115q-61 51 -91 110.5t-32 103.5q-1 22 -1 41t1 36q0 129 63 217q63 92 172 128t221 36q111 0 204 -31t156.5 -76t94.5 -80l-137 -182 q-39 43 -117 80t-131 50q-46 12 -72 12q-4 0 -8 -1q-106 0 -149 -42t-43 -101q0 -72 49 -109q27 -18 79 -42.5t134 -53.5q182 -63 272 -141q90 -76 109 -154q16 -72 22 -151q0 -139 -84 -242q-84 -98 -192.5 -129t-192.5 -31q-92 0 -169.5 16.5t-137 38t-100 44t-58.5 36.5z " />
<glyph unicode="T" horiz-adv-x="1056" d="M10 1118v248h1037v-248h-388v-1118h-262v1118h-387z" />
<glyph unicode="U" horiz-adv-x="1337" d="M141 469v897h262v-870q0 -123 69 -202t198 -79t195.5 79t66.5 202v870h262v-897q0 -117 -41 -209t-112.5 -156.5t-167 -98.5t-205.5 -34q-174 0 -299 76q-127 78 -177.5 191.5t-50.5 230.5z" />
<glyph unicode="V" horiz-adv-x="1224" d="M0 1366h281l346 -1034l340 1034h258l-477 -1366h-244z" />
<glyph unicode="W" horiz-adv-x="1554" d="M20 1366h261l155 -922l221 922h240l231 -922l154 922h252l-260 -1366h-260l-242 983l-231 -983h-262z" />
<glyph unicode="X" horiz-adv-x="1126" d="M0 0l422 711l-393 655h297l237 -416l236 416h297l-391 -655l421 -711h-292l-271 471l-270 -471h-293z" />
<glyph unicode="Y" horiz-adv-x="1130" d="M0 1366h293l280 -543l269 543h288l-430 -817v-549h-262v549z" />
<glyph unicode="Z" horiz-adv-x="1101" d="M51 0v225l662 893h-607v248h928v-233l-655 -885h668v-248h-996z" />
<glyph unicode="[" horiz-adv-x="614" d="M129 -293v1800h455v-225h-213v-1350h213v-225h-455z" />
<glyph unicode="\" horiz-adv-x="1056" d="M0 1460l193 109l864 -1518l-197 -117z" />
<glyph unicode="]" horiz-adv-x="614" d="M31 -68h215v1350h-215v225h454v-1800h-454v225z" />
<glyph unicode="^" horiz-adv-x="1073" d="M119 659l321 707h189l327 -676l-227 -92l-194 436l-181 -454z" />
<glyph unicode="_" horiz-adv-x="1024" d="M0 -307h1024v-144h-1024v144z" />
<glyph unicode="`" horiz-adv-x="860" d="M174 1331l121 170l391 -289l-68 -110z" />
<glyph unicode="a" horiz-adv-x="999" d="M66 291q0 80 33.5 138t88 98t117 61.5t113.5 27.5q29 4 205 25v14q0 82 -42 117t-116 35t-141.5 -32t-102.5 -62l-84 178q43 43 160 82q123 39 211 39q94 0 164.5 -29t117 -81t68 -121.5t21.5 -145.5v-635h-234l-10 74q-41 -45 -104.5 -71t-139.5 -26q-63 0 -121.5 21.5 t-103.5 61.5t-72.5 98.5t-27.5 132.5zM313 297q0 -49 36 -79t102 -30q49 0 95 20.5t79 51.5v201q-125 -14 -166 -21q-82 -16 -114 -56t-32 -87z" />
<glyph unicode="b" horiz-adv-x="1075" d="M127 61v1305h254v-377q100 23 166 23q170 0 276 -88q109 -90 146 -203q39 -109 39 -209q0 -143 -41 -244.5t-111 -166t-163 -94.5t-195 -30q-98 0 -188.5 22.5t-182.5 61.5zM381 211q80 -18 106 -18q123 0 198 79.5t75 233.5q0 145 -74 218t-180 73q-51 0 -125 -23v-563z " />
<glyph unicode="c" horiz-adv-x="948" d="M68 489q0 184 73 312q76 125 182.5 168t196.5 43q156 0 250 -74t137 -158l-188 -127q-31 53 -77 99.5t-120 46.5q-82 0 -142.5 -73t-60.5 -226q0 -147 61.5 -225t178.5 -78q104 0 166.5 31.5t95.5 64.5l74 -209q-55 -41 -150.5 -74t-218.5 -33q-90 0 -173 31t-146.5 94.5 t-101 159.5t-37.5 227z" />
<glyph unicode="d" horiz-adv-x="1083" d="M68 498q0 158 63 276q47 96 130 150.5t158 71.5q67 16 108 16h10q72 0 168 -29v383h251v-1366h-231l-10 76q-35 -39 -92.5 -69t-135.5 -30q-102 0 -180 43t-131 115t-80.5 166.5t-27.5 196.5zM315 504q0 -61 13.5 -117.5t41 -98.5t69.5 -67.5t100 -25.5q47 0 96 25.5 t70 60.5v487q-80 29 -138 29q-106 0 -170.5 -69t-74.5 -134q-7 -47 -8 -73q0 -10 1 -17z" />
<glyph unicode="e" horiz-adv-x="1021" d="M68 494q0 125 35.5 221t98 161.5t145.5 100.5t177 35q166 0 271 -92q106 -92 137 -218q31 -123 31 -227v-45h-639q8 -125 77.5 -180t180.5 -55q98 0 171.5 30.5t100.5 57.5l68 -207q-45 -33 -86 -47q-25 -12 -121 -31q-94 -20 -168 -21q-96 0 -183.5 31t-153 95.5 t-104 161t-38.5 229.5zM330 612h375q-6 84 -48.5 129t-81 56.5t-51.5 11.5q-66 0 -125 -49.5t-69 -147.5z" />
<glyph unicode="f" horiz-adv-x="651" d="M31 782v205h131v53q0 143 59 228q57 86 135 104q74 20 131 21q92 0 152.5 -17.5t71.5 -23.5l-29 -211q-12 6 -48 17t-95 11q-53 0 -89 -31.5t-36 -103.5v-47h213v-205h-211v-782h-254v782h-131z" />
<glyph unicode="g" horiz-adv-x="1077" d="M68 506q0 162 73 282q76 123 198 173.5t259 50.5q106 0 202.5 -11.5t151.5 -21.5v-954q0 -211 -115.5 -321t-332.5 -110q-65 0 -126 7.5t-118 21.5q-106 27 -143 45l53 223q51 -29 135 -53t178 -24q111 0 162 41t51 106v57q-72 -18 -139 -18q-121 0 -212 40t-152.5 108.5 t-93 161t-31.5 196.5zM315 506q0 -129 69 -208t210 -79q37 0 60.5 8.5t41.5 18.5v545q-53 8 -96 8q-121 0 -190 -62q-43 -39 -67 -88t-26 -86t-2 -57z" />
<glyph unicode="h" horiz-adv-x="1122" d="M127 1366h254v-444q47 37 111.5 63.5t156.5 26.5h8q138 0 221 -76q85 -78 103 -178q20 -96 20 -172v-586h-253v567q0 123 -48.5 177.5t-110 54.5t-111.5 -28t-97 -69v-702h-254v1366z" />
<glyph unicode="i" horiz-adv-x="505" d="M100 1225q0 53 38 98t116 45q76 0 114 -45t38 -98q0 -55 -38 -100.5t-114 -45.5q-78 0 -116 45.5t-38 100.5zM127 0v987h252v-987h-252z" />
<glyph unicode="j" horiz-adv-x="526" d="M-8 -217q86 57 119.5 116.5t33.5 139.5v948h254v-948q0 -170 -70.5 -276.5t-224.5 -178.5zM123 1225q0 53 38 98t113 45q74 0 112 -45t38 -98q0 -55 -38 -100.5t-112 -45.5q-76 0 -113.5 45.5t-37.5 100.5z" />
<glyph unicode="k" horiz-adv-x="1024" d="M127 1366h254v-713h61q37 0 66 21.5t59 93.5l90 219h275l-119 -276q-41 -92 -115 -140q45 -23 75 -54.5t50 -80.5l181 -436h-277l-113 266q-39 92 -68.5 129t-84.5 37h-80v-432h-254v1366z" />
<glyph unicode="l" horiz-adv-x="630" d="M127 240v1126h254v-1077q0 -53 21.5 -72.5t60.5 -19.5t82 18l45 -192q-8 -8 -74 -27q-61 -18 -127 -19q-84 0 -136 26t-81 66t-37 87t-8 84z" />
<glyph unicode="m" horiz-adv-x="1714" d="M127 0v987h233l11 -74q45 41 111.5 70t133.5 29q70 0 138.5 -21.5t128.5 -75.5q68 41 148.5 69t172.5 28q168 0 258 -74q92 -78 111 -174q20 -94 20 -172v-592h-252v580q0 98 -36.5 158.5t-137.5 60.5q-49 0 -105 -27t-89 -53q12 -74 12 -123v-596h-254v580 q0 111 -41 165t-115 54q-57 0 -108 -31t-86 -66v-702h-254z" />
<glyph unicode="n" horiz-adv-x="1130" d="M127 0v987h231l13 -78q59 49 134 76t150 27q119 0 203 -53.5t118 -157t34 -217.5v-584h-254v563q0 113 -46 174.5t-132 61.5q-59 0 -109.5 -31t-87.5 -68v-700h-254z" />
<glyph unicode="o" horiz-adv-x="1081" d="M68 498q0 150 65 276q68 127 178.5 182.5t229.5 55.5q166 0 280 -90q113 -88 152 -209q41 -127 41 -215q0 -150 -68 -279q-51 -100 -134 -157.5t-154.5 -71t-116.5 -13.5q-119 0 -208 45.5t-147.5 119t-88 167t-29.5 189.5zM317 498q0 -63 14.5 -117.5t42 -95.5 t69.5 -64.5t98 -23.5q7 0 13 -1q57 0 97 32q45 36 71 85.5t36 101.5q7 37 7 63q0 11 -1 20q0 111 -46 186.5t-98 94.5q-47 18 -74 18h-5q-86 0 -144 -62q-47 -51 -63.5 -113.5t-16.5 -123.5z" />
<glyph unicode="p" horiz-adv-x="1077" d="M127 -387v1374h231l13 -74q35 35 93 67t138 32q141 0 239.5 -86t133.5 -209q35 -127 35 -221q0 -156 -70 -284t-184.5 -181.5t-243.5 -53.5q-61 0 -131 29v-393h-254zM379 227q68 -29 119 -28h9q70 0 119 28q52 31 82.5 76t43.5 96q11 44 10 81v12q2 90 -35 170 q-35 80 -88 110q-47 27 -81 27h-9q-53 0 -100.5 -30t-69.5 -64v-478z" />
<glyph unicode="q" horiz-adv-x="1077" d="M68 496q0 156 71 282q74 127 198 180.5t261 53.5q76 0 165 -9.5t189 -23.5v-1366h-256v383q-72 -18 -139 -19q-121 0 -212 42t-152.5 113t-93 165.5t-31.5 198.5zM315 496q0 -63 17.5 -117.5t52.5 -94.5t87 -63.5t122 -23.5q53 0 102 24v570q-53 8 -96 8h-10 q-77 0 -129 -31q-55 -33 -89 -80t-47 -100q-10 -41 -11 -73q0 -10 1 -19z" />
<glyph unicode="r" horiz-adv-x="729" d="M127 0v987h231l17 -104q35 41 77 66.5t87 42t79 16.5q80 0 111 -15l-37 -221q-27 8 -86 8q-72 0 -129 -37.5t-96 -78.5v-664h-254z" />
<glyph unicode="s" horiz-adv-x="944" d="M57 109l92 194q39 -41 111 -76q72 -31 130.5 -41t96.5 -10q92 0 128 26.5t36 71.5q0 39 -47 70t-182 66q-96 20 -158.5 51t-99.5 69.5t-50 85.5q-12 41 -12 87v14q0 131 97.5 213t296.5 82q129 0 231 -37q104 -35 145 -70l-86 -184q-39 31 -114.5 63.5t-173.5 32.5 q-90 0 -122 -28.5t-32 -69.5q0 -49 37 -70q39 -20 164 -45q152 -27 231.5 -90t96 -124.5t16.5 -102.5q0 -123 -76 -199q-78 -74 -173 -92.5t-153 -18.5q-53 0 -107 7.5t-112 21.5q-111 29 -156 58t-55 45z" />
<glyph unicode="t" horiz-adv-x="716" d="M29 782v205h139v256h252v-256h227v-205h-227v-501q0 -47 22.5 -65.5t53.5 -18.5q76 0 131 43l65 -183q-47 -35 -117.5 -57.5t-148.5 -22.5q-131 0 -194.5 74t-63.5 178v553h-139z" />
<glyph unicode="u" horiz-adv-x="1126" d="M121 399v588h254v-561q0 -102 37 -165.5t127 -63.5q74 0 125 29.5t81 56.5v704h254v-987h-233l-8 78q-68 -57 -140.5 -77.5t-142.5 -20.5q-174 0 -264 104t-90 315z" />
<glyph unicode="v" horiz-adv-x="1036" d="M0 987h270l258 -655l250 655h258l-401 -987h-221z" />
<glyph unicode="w" horiz-adv-x="1394" d="M0 987h264l170 -625l160 625h205l162 -625l169 625h265l-324 -987h-205l-170 643l-166 -643h-206z" />
<glyph unicode="x" horiz-adv-x="993" d="M0 987h287l215 -305l217 305h260l-342 -481l356 -506h-284l-220 311l-215 -311h-268l352 487z" />
<glyph unicode="y" horiz-adv-x="1030" d="M8 987h273l274 -758q88 233 119 351q78 287 106 407h250q-76 -301 -161 -544.5t-171 -417.5q-82 -156 -147 -242q-66 -80 -190.5 -126t-284.5 -48l-23 227q111 0 198 26.5t134 86.5q8 10 14.5 22.5t14.5 24.5z" />
<glyph unicode="z" horiz-adv-x="989" d="M70 0v182l536 600h-514v205h807v-192l-528 -592h544v-203h-845z" />
<glyph unicode="{" horiz-adv-x="571" d="M31 608v152q82 12 119.5 51t37.5 115v264q0 156 80 229.5t254 77.5l19 -178q-86 -4 -108.5 -46t-22.5 -126v-221q0 -184 -131 -242q68 -35 99.5 -91t31.5 -151v-225q0 -35 4 -64.5t17 -52t39 -36t71 -15.5l-19 -176q-174 2 -254 77t-80 230v262q0 76 -37.5 115t-119.5 51 z" />
<glyph unicode="|" horiz-adv-x="507" d="M137 -152v1663h232v-1663h-232z" />
<glyph unicode="}" horiz-adv-x="563" d="M20 49q80 2 107 42t27 126v225q0 94 31.5 150.5t99.5 91.5q-131 57 -131 242v221v11q0 85 -29 117q-31 34 -105 44l21 178q174 -4 254 -77.5t80 -229.5v-264q0 -76 38 -115t119 -51v-152q-82 -12 -119.5 -51t-37.5 -115v-262q0 -305 -334 -307z" />
<glyph unicode="~" horiz-adv-x="876" d="M-4 1036q18 147 90 221t184 74q61 0 105.5 -17.5t78.5 -37.5l61 -38q28 -17 56 -17q31 0 58.5 20.5t38.5 93.5h211q-6 -121 -51.5 -192.5t-103.5 -92t-108 -20.5q-102 0 -184 55q-82 57 -129 58q-37 0 -61.5 -23.5t-32.5 -83.5h-213z" />
<glyph unicode="&#xa1;" horiz-adv-x="493" d="M90 841.5q0 65.5 44 116t116 50.5q70 0 114 -50.5t44 -116t-44.5 -115.5t-113.5 -50q-72 0 -116 50t-44 115.5zM123 -381v934h258v-934h-258z" />
<glyph unicode="&#xa2;" d="M162 686q0 84 25.5 153.5t71.5 122t105.5 83t122.5 36.5v285h164v-283q96 -16 223 -75l-73 -185q-72 35 -122 47.5t-97 12.5q-74 0 -119 -45t-53.5 -88t-8.5 -66q0 -35 11.5 -72t35 -67.5t57.5 -50t77 -19.5q92 0 209 62l81 -183q-66 -39 -119 -56t-102 -24v-297h-164 v302q-127 18 -209.5 107t-99 171t-16.5 129z" />
<glyph unicode="&#xa3;" d="M59 504v223h138v213q0 154 67 262q45 74 116 117t131 52t93 9q129 0 228.5 -63.5t158.5 -188.5l-200 -143q-45 82 -90.5 118t-96.5 36q-61 0 -107 -46t-46 -165v-201h387v-223h-387v-256h532v-248h-786v504h-138z" />
<glyph unicode="&#xa4;" horiz-adv-x="1204" d="M25 336l135 135q-29 53 -45.5 111.5t-16.5 124t16.5 124t45.5 111.5l-135 135l196 197l139 -137q53 27 110.5 41t121.5 14q61 0 119.5 -15.5t111.5 -41.5l140 139l196 -197l-135 -135q29 -53 45 -111.5t16 -123.5q0 -63 -16 -123t-45 -113l135 -135l-196 -197l-138 140 q-53 -27 -110.5 -42.5t-122.5 -15.5q-63 0 -120.5 15.5t-111.5 42.5l-139 -140zM354 707q0 -51 18.5 -95.5t50.5 -77t76 -52t93 -19.5h8q56 0 100 26q47 29 78 69t44 82q9 29 9 49q0 9 -2 18q2 84 -48 144t-107 81q-52 19 -77 18h-5h-6q-75 0 -140 -51q-61 -51 -78 -103 q-14 -42 -14 -75q-1 -7 0 -14z" />
<glyph unicode="&#xa5;" horiz-adv-x="997" d="M-35 1356h277l268 -537l252 537h270l-327 -649h208v-222h-284v-485h-250v485h-287v222h207z" />
<glyph unicode="&#xa6;" horiz-adv-x="534" d="M143 -152v631h244v-631h-244zM143 879v632h244v-632h-244z" />
<glyph unicode="&#xa7;" horiz-adv-x="956" d="M100 -166l111 197q53 -45 113.5 -79t120 -34t84 28.5t24.5 63.5q0 33 -17.5 59.5t-50 52t-72.5 50.5t-79 53q-100 66 -156.5 139.5t-56.5 194.5q0 111 52 180.5t138 116.5q-63 57 -92 116.5t-29 141.5q0 135 90.5 207t237.5 72q98 0 180 -33t156 -107l-131 -174 q-35 37 -87 69t-110 32q-39 0 -63.5 -21.5t-24.5 -60.5q0 -53 48.5 -97.5t113.5 -91.5l139 -114q53 -49 84 -115t31 -133q0 -98 -44 -167t-122 -120q53 -47 88 -104.5t35 -149.5q0 -104 -72 -182q-70 -76 -155 -98q-96 -20 -129 -21q-117 0 -203 38t-152 91zM371 582 q0 -55 40 -100.5t126 -100.5q39 29 54 64.5t15 70.5q0 43 -32.5 92t-118.5 115q-49 -23 -66.5 -62.5t-17.5 -78.5z" />
<glyph unicode="&#xa8;" horiz-adv-x="905" d="M90 1282q0 49 36 91t107 42q70 0 105 -42t35 -91q0 -51 -35 -93t-105 -42q-72 0 -107.5 42t-35.5 93zM516 1282q0 49 36 91t107 42q70 0 105 -42t35 -91q0 -51 -35 -93t-105 -42q-72 0 -107.5 42t-35.5 93z" />
<glyph unicode="&#xa9;" horiz-adv-x="1587" d="M90 608q0 225 103 414q74 141 193.5 223t231 103.5t177.5 21.5q244 0 413 -133q172 -135 230 -309q59 -182 59 -320q0 -229 -101.5 -415.5t-263 -268.5t-338 -82t-307.5 65.5t-220 173t-133 245t-44 282.5zM264 608q0 -117 34 -225.5t101.5 -192t167 -134t228.5 -50.5 q184 0 311 103q125 104 172 243q45 133 45 256q0 180 -76 324q-51 104 -147 174t-179 86t-126 16q-131 0 -230.5 -50t-166 -134t-100.5 -192.5t-34 -223.5zM395 604q0 170 70 283q72 117 164 151q94 37 174 37q129 0 212 -53t134 -164l-172 -94q-31 63 -69 99t-101 36 q-68 0 -123 -53q-53 -53 -66.5 -120t-13.5 -122q0 -135 62.5 -212t150.5 -77q47 0 88 25t84 102l168 -100q-66 -117 -149.5 -161t-196.5 -44q-141 0 -244 72q-102 74 -137 179t-35 216z" />
<glyph unicode="&#xaa;" horiz-adv-x="737" d="M51 829q0 109 82 166q86 61 178 76q94 14 150 19v20q0 41 -29 67.5t-70 26.5q-43 0 -84.5 -18.5t-89.5 -52.5l-79 129q72 55 140 76.5t130 21.5q129 0 202.5 -65.5t73.5 -215.5v-461h-176l-6 58q-84 -72 -180 -72q-104 0 -173 59.5t-69 165.5zM240 840q0 -78 98 -78 q41 0 71.5 14.5t53.5 36.5v133q-70 -6 -119 -14q-59 -12 -81.5 -36.5t-22.5 -55.5z" />
<glyph unicode="&#xab;" horiz-adv-x="1118" d="M29 512l403 434l168 -139l-278 -283l305 -276l-156 -156zM473 512l404 434l165 -139l-278 -283l307 -276l-156 -156z" />
<glyph unicode="&#xac;" d="M41 831v224h958v-756h-221v532h-737z" />
<glyph unicode="&#xad;" horiz-adv-x="643" d="M74 412v243h493v-243h-493z" />
<glyph unicode="&#xae;" horiz-adv-x="1589" d="M92 608q0 225 103 414q74 145 197.5 225t231 101.5t173.5 21.5q242 0 411 -133q172 -135 230 -309q59 -182 59 -320q0 -229 -101.5 -415.5t-263 -268.5t-338 -82t-307.5 65.5t-219 173t-132 245t-44 282.5zM264 608q0 -117 34 -225.5t101.5 -192t167 -134t230.5 -50.5 q184 0 309 100q129 102 174 244q45 135 45 258q0 180 -76 324q-51 104 -147 174t-179 86t-126 16q-188 0 -322 -108q-129 -106 -170 -242q-41 -141 -41 -250zM502 1040h311q166 0 246 -66.5t80 -195.5q0 -104 -47.5 -162.5t-118.5 -83.5l174 -323h-203l-158 301h-94v-301 h-190v831zM692 684h107q78 0 110.5 20.5t32.5 79.5q0 49 -29.5 65.5t-105.5 16.5h-115v-182z" />
<glyph unicode="&#xaf;" horiz-adv-x="905" d="M78 1184v182h706v-182h-706z" />
<glyph unicode="&#xb0;" horiz-adv-x="811" d="M82 1061q0 82 34 141.5t85 96t107.5 52t97.5 15.5q86 0 169 -47q82 -45 118 -115.5t36 -144.5q0 -84 -35 -143.5t-86 -96.5t-106.5 -51t-93.5 -14q-94 0 -176 49t-116 116.5t-34 141.5zM295 1059q0 -63 35 -95t75.5 -32t75.5 31.5t35 95.5q0 66 -35 97.5t-75.5 31.5 t-75.5 -31.5t-35 -97.5z" />
<glyph unicode="&#xb1;" d="M47 0v225h959v-225h-959zM47 729v225h373v412h213v-412h373v-225h-373v-405h-213v405h-373z" />
<glyph unicode="&#xb2;" horiz-adv-x="645" d="M68 1290q23 23 109.5 56.5t154.5 33.5q111 0 176 -54t65 -152q0 -63 -29.5 -106.5t-82.5 -84.5l-176 -131h290v-162h-485v131q0 88 72 142l147 112q59 47 60 84q0 35 -20.5 47.5t-49.5 12.5q-53 0 -96 -25t-66 -41z" />
<glyph unicode="&#xb3;" horiz-adv-x="645" d="M76 743l63 142q35 -29 77 -48.5t89 -19.5q100 0 101 80q0 41 -26 61.5t-91 20.5q-31 0 -60 -4v108q20 29 49 58.5t66 60.5h-238v160h451v-158q-94 -53 -147 -114q80 -10 131 -59.5t51 -135.5q0 -117 -79 -174t-198 -57q-74 0 -136 22t-103 57z" />
<glyph unicode="&#xb4;" horiz-adv-x="905" d="M188 1212l392 289l120 -170l-444 -229z" />
<glyph unicode="&#xb5;" horiz-adv-x="1191" d="M137 -387v1374h254v-600q0 -86 41 -143.5t133 -57.5q66 0 116 30t73 85q14 31 14 150v536h254v-715q0 -53 12.5 -73.5t40.5 -20.5q27 0 64 15l32 -187q-74 -29 -149 -29q-156 0 -191 134q-47 -68 -114.5 -101t-147.5 -33q-59 0 -113.5 21.5t-82.5 54.5v-440h-236z" />
<glyph unicode="&#xb6;" horiz-adv-x="1032" d="M31 938q0 121 63 227q63 111 159.5 156t188.5 45h156v-1663h-209v813q-80 8 -145.5 46t-113.5 94.5t-73.5 129t-25.5 152.5zM690 -297v1663h213v-1663h-213z" />
<glyph unicode="&#xb7;" horiz-adv-x="667" d="M190 756q0 57 36 103t108 46t106.5 -46t34.5 -103q0 -55 -34.5 -101.5t-106.5 -46.5t-108 46.5t-36 101.5z" />
<glyph unicode="&#xb8;" horiz-adv-x="905" d="M262 -371l121 281h225l-166 -281h-180z" />
<glyph unicode="&#xb9;" horiz-adv-x="645" d="M104 1210l258 152h144v-672h-191v447l-133 -74z" />
<glyph unicode="&#xba;" horiz-adv-x="802" d="M59 983q0 102 47 203q49 94 129 134t166 40q125 0 211 -77t109 -163q25 -90 24 -137q0 -106 -49 -201q-47 -94 -128 -136t-167 -42q-98 0 -164.5 39t-107.5 98.5t-55.5 126t-14.5 115.5zM262 983q0 -82 34 -140.5t105.5 -58.5t105.5 58.5t34 140.5q0 86 -34 144.5 t-104 58.5q-72 0 -106.5 -58.5t-34.5 -144.5z" />
<glyph unicode="&#xbb;" horiz-adv-x="1116" d="M47 248l305 276l-278 283l168 139l401 -434l-440 -420zM489 248l308 276l-279 283l166 139l403 -434l-444 -420z" />
<glyph unicode="&#xbc;" horiz-adv-x="1585" d="M6 1210l258 152h144v-672h-191v447l-133 -74zM76 119l1274 1249l137 -143l-1280 -1252zM918 145v150l313 377h174v-383h80v-144h-80v-145h-188v145h-299zM1071 289h146v176z" />
<glyph unicode="&#xbd;" horiz-adv-x="1585" d="M37 119l1274 1249l137 -143l-1280 -1252zM37 1210l258 152h143v-672h-190v447l-133 -74zM985 612q23 23 110 56.5t154 33.5q111 0 176.5 -54t65.5 -152q0 -63 -29.5 -106.5t-83.5 -84.5l-176 -131h291v-162h-485v131q0 88 71 142l148 112q59 47 59 84q0 35 -20.5 47.5 t-48.5 12.5q-53 0 -96.5 -24.5t-65.5 -41.5z" />
<glyph unicode="&#xbe;" horiz-adv-x="1585" d="M90 743l64 142q35 -29 76.5 -48.5t88.5 -19.5q100 0 101 80q0 41 -25.5 61.5t-91.5 20.5q-31 0 -59 -4v108q20 29 49 58.5t65 60.5h-237v160h450v-158q-94 -53 -147 -114q80 -10 131 -59.5t51 -135.5q0 -117 -78.5 -174t-197.5 -57q-74 0 -136.5 22t-103.5 57zM125 119 l1274 1249l137 -143l-1280 -1252zM901 145v150l313 377h175v-383h79v-144h-79v-145h-189v145h-299zM1055 289h145v176z" />
<glyph unicode="&#xbf;" horiz-adv-x="864" d="M33 -51q0 98 43 176t123 164q131 137 131 221v49h248v-86q0 -84 -40 -149.5t-122 -147.5q-49 -49 -87 -99t-38 -122q0 -63 41 -100t117 -37q55 0 118.5 38t130.5 124l156 -160q-57 -78 -137 -127q-86 -55 -159 -75.5t-134 -20.5q-147 0 -242 65q-68 53 -100.5 107.5 t-40.5 103.5t-8 76zM295 847.5q0 65.5 44 116t116 50.5q70 0 113.5 -50.5t43.5 -116t-44 -115.5t-113 -50q-72 0 -116 50t-44 115.5z" />
<glyph unicode="&#xc0;" horiz-adv-x="1245" d="M0 0l492 1366h260l493 -1366h-268l-94 274h-523l-92 -274h-268zM338 1671l121 170l391 -289l-68 -110zM440 506h365l-182 538z" />
<glyph unicode="&#xc1;" horiz-adv-x="1245" d="M0 0l492 1366h260l493 -1366h-268l-94 274h-523l-92 -274h-268zM399 1552l392 289l120 -170l-444 -229zM440 506h365l-182 538z" />
<glyph unicode="&#xc2;" horiz-adv-x="1245" d="M0 0l492 1366h260l493 -1366h-268l-94 274h-523l-92 -274h-268zM297 1546l235 266h189l231 -264l-131 -92l-196 197l-197 -199zM440 506h365l-182 538z" />
<glyph unicode="&#xc3;" horiz-adv-x="1245" d="M0 0l492 1366h260l493 -1366h-268l-94 274h-523l-92 -274h-268zM223 1524q37 104 101.5 167.5t150.5 63.5q53 0 150 -59q82 -57 114 -58q18 0 53 24t68 105l141 -75q-29 -104 -98 -169t-158 -65q-57 0 -151 62q-84 55 -113 55q-23 0 -54.5 -23.5t-64.5 -105.5zM440 506 h365l-182 538z" />
<glyph unicode="&#xc4;" horiz-adv-x="1245" d="M0 0l492 1366h260l493 -1366h-268l-94 274h-523l-92 -274h-268zM268 1622q0 49 36 91t108 42q70 0 104.5 -42t34.5 -91q0 -51 -35 -93t-104 -42q-72 0 -108 42t-36 93zM440 506h365l-182 538zM694 1622q0 49 36 91t108 42q70 0 104.5 -42t34.5 -91q0 -51 -35 -93 t-104 -42q-72 0 -108 42t-36 93z" />
<glyph unicode="&#xc5;" horiz-adv-x="1245" d="M0 0l492 1366h260l493 -1366h-268l-94 274h-523l-92 -274h-268zM412 1645q0 53 19.5 95t51 70.5t70.5 43t80 14.5q90 0 148.5 -63.5t58.5 -157.5q0 -45 -15.5 -86t-44 -72t-68.5 -48.5t-87 -17.5q-92 0 -152.5 62t-60.5 160zM440 506h365l-182 538zM545 1647 q0 -41 21.5 -68t58.5 -27q39 0 60.5 27t21.5 68t-21.5 67.5t-60.5 26.5q-37 0 -58.5 -26.5t-21.5 -67.5z" />
<glyph unicode="&#xc6;" horiz-adv-x="1857" d="M0 0l791 1366h966v-248h-594v-309h484v-246h-484v-315h639v-248h-901v360h-397l-209 -360h-295zM625 594h276v489z" />
<glyph unicode="&#xc7;" horiz-adv-x="1169" d="M88 678q0 184 50 318t132 223.5t187.5 132.5t216.5 43q139 0 243.5 -51.5t151.5 -108.5t59 -82l-192 -162q-10 18 -29.5 46t-51.5 53.5t-76 44t-101 18.5q-66 0 -124 -27.5t-103 -86t-71 -147.5t-26 -214q0 -223 96.5 -343t256.5 -120q117 0 200.5 40t120.5 77l84 -228 q-47 -55 -189.5 -94t-246.5 -39q-129 0 -236.5 45t-186.5 134.5t-122 221.5t-43 306zM467 -371l121 281h225l-166 -281h-180z" />
<glyph unicode="&#xc8;" horiz-adv-x="1140" d="M150 0v1366h890v-248h-628v-311h520v-248h-520v-311h673v-248h-935zM315 1671l121 170l391 -289l-67 -110z" />
<glyph unicode="&#xc9;" horiz-adv-x="1140" d="M150 0v1366h890v-248h-628v-311h520v-248h-520v-311h673v-248h-935zM420 1552l391 289l121 -170l-445 -229z" />
<glyph unicode="&#xca;" horiz-adv-x="1140" d="M150 0v1366h890v-248h-628v-311h520v-248h-520v-311h673v-248h-935zM270 1546l236 266h188l232 -264l-131 -92l-197 197l-197 -199z" />
<glyph unicode="&#xcb;" horiz-adv-x="1140" d="M150 0v1366h890v-248h-628v-311h520v-248h-520v-311h673v-248h-935zM246 1622q0 49 35.5 91t107.5 42q70 0 104.5 -42t34.5 -91q0 -51 -34.5 -93t-104.5 -42q-72 0 -107.5 42t-35.5 93zM672 1622q0 49 35.5 91t107.5 42q70 0 104.5 -42t34.5 -91q0 -51 -34.5 -93 t-104.5 -42q-72 0 -107.5 42t-35.5 93z" />
<glyph unicode="&#xcc;" horiz-adv-x="563" d="M16 1671l121 170l391 -289l-67 -110zM150 0v1366h262v-1366h-262z" />
<glyph unicode="&#xcd;" horiz-adv-x="563" d="M80 1552l391 289l121 -170l-445 -229zM150 0v1366h262v-1366h-262z" />
<glyph unicode="&#xce;" horiz-adv-x="563" d="M-35 1546l236 266h188l232 -264l-132 -92l-196 197l-197 -199zM150 0v1366h262v-1366h-262z" />
<glyph unicode="&#xcf;" horiz-adv-x="563" d="M-53 1622q0 49 35.5 91t107.5 42q70 0 104.5 -42t34.5 -91q0 -51 -34.5 -93t-104.5 -42q-72 0 -107.5 42t-35.5 93zM150 0v1366h262v-1366h-262zM373 1622q0 49 35.5 91t107.5 42q70 0 104.5 -42t34.5 -91q0 -51 -34.5 -93t-104.5 -42q-72 0 -107.5 42t-35.5 93z" />
<glyph unicode="&#xd0;" horiz-adv-x="1286" d="M0 596v215h150v555h385q74 0 163.5 -12.5t171.5 -48.5q129 -63 209 -189q82 -123 103 -239q20 -137 20 -187q0 -178 -70.5 -330.5t-145.5 -214t-118 -75.5q-139 -70 -323 -70h-395v596h-150zM412 246h106q143 0 234 51q94 51 139 156.5t45 224.5q0 117 -41 220t-127 161 q-45 31 -111.5 46t-132.5 15h-112v-309h301v-215h-301v-350z" />
<glyph unicode="&#xd1;" horiz-adv-x="1351" d="M150 0v1366h268l526 -852v852h258v-1366h-229l-563 903v-903h-260zM297 1524q37 104 101.5 167.5t150.5 63.5q53 0 149 -59q82 -57 115 -58q18 0 53 24t68 105l141 -75q-29 -104 -98.5 -169t-157.5 -65q-57 0 -151 62q-84 55 -113 55q-23 0 -54.5 -23.5t-64.5 -105.5z " />
<glyph unicode="&#xd2;" horiz-adv-x="1376" d="M88 684q0 131 37 259t111.5 228.5t186.5 162t261 61.5q209 0 354.5 -123t196.5 -291q53 -176 53 -297q0 -131 -38 -259t-112.5 -228.5t-188 -163t-265.5 -62.5q-150 0 -261.5 62.5t-186 163t-111.5 228.5t-37 259zM352 684q0 -90 21.5 -175t63.5 -150.5t104.5 -104.5 t142.5 -39q82 0 151.5 44t104.5 104.5t51 117.5q31 113 31 203q0 135 -49 252q-47 117 -127 167t-162 50q-80 0 -142.5 -39t-104.5 -104.5t-63.5 -150.5t-21.5 -175zM422 1671l121 170l391 -289l-68 -110z" />
<glyph unicode="&#xd3;" horiz-adv-x="1376" d="M88 684q0 131 37 259t111.5 228.5t186.5 162t261 61.5q209 0 354.5 -123t196.5 -291q53 -176 53 -297q0 -131 -38 -259t-112.5 -228.5t-188 -163t-265.5 -62.5q-150 0 -261.5 62.5t-186 163t-111.5 228.5t-37 259zM352 684q0 -90 21.5 -175t63.5 -150.5t104.5 -104.5 t142.5 -39q82 0 151.5 44t104.5 104.5t51 117.5q31 113 31 203q0 135 -49 252q-47 117 -127 167t-162 50q-80 0 -142.5 -39t-104.5 -104.5t-63.5 -150.5t-21.5 -175zM504 1552l391 289l121 -170l-445 -229z" />
<glyph unicode="&#xd4;" horiz-adv-x="1376" d="M88 684q0 131 37 259t111.5 228.5t186.5 162t261 61.5q209 0 354.5 -123t196.5 -291q53 -176 53 -297q0 -131 -38 -259t-112.5 -228.5t-188 -163t-265.5 -62.5q-150 0 -261.5 62.5t-186 163t-111.5 228.5t-37 259zM352 684q0 -90 21.5 -175t63.5 -150.5t104.5 -104.5 t142.5 -39q82 0 151.5 44t104.5 104.5t51 117.5q31 113 31 203q0 135 -49 252q-47 117 -127 167t-162 50q-80 0 -142.5 -39t-104.5 -104.5t-63.5 -150.5t-21.5 -175zM367 1546l235 266h189l231 -264l-131 -92l-197 197l-196 -199z" />
<glyph unicode="&#xd5;" horiz-adv-x="1376" d="M88 684q0 131 37 259t111.5 228.5t186.5 162t261 61.5q209 0 354.5 -123t196.5 -291q53 -176 53 -297q0 -131 -38 -259t-112.5 -228.5t-188 -163t-265.5 -62.5q-150 0 -261.5 62.5t-186 163t-111.5 228.5t-37 259zM299 1524q37 104 101.5 167.5t150.5 63.5q53 0 149 -59 q82 -57 115 -58q18 0 53 24t68 105l141 -75q-29 -104 -98.5 -169t-157.5 -65q-57 0 -151 62q-84 55 -113 55q-23 0 -54.5 -23.5t-64.5 -105.5zM352 684q0 -90 21.5 -175t63.5 -150.5t104.5 -104.5t142.5 -39q82 0 151.5 44t104.5 104.5t51 117.5q31 113 31 203 q0 135 -49 252q-47 117 -127 167t-162 50q-80 0 -142.5 -39t-104.5 -104.5t-63.5 -150.5t-21.5 -175z" />
<glyph unicode="&#xd6;" horiz-adv-x="1376" d="M88 684q0 131 37 259t111.5 228.5t186.5 162t261 61.5q209 0 354.5 -123t196.5 -291q53 -176 53 -297q0 -131 -38 -259t-112.5 -228.5t-188 -163t-265.5 -62.5q-150 0 -261.5 62.5t-186 163t-111.5 228.5t-37 259zM346 1622q0 49 36 91t107 42q70 0 105 -42t35 -91 q0 -51 -35 -93t-105 -42q-72 0 -107.5 42t-35.5 93zM352 684q0 -90 21.5 -175t63.5 -150.5t104.5 -104.5t142.5 -39q82 0 151.5 44t104.5 104.5t51 117.5q31 113 31 203q0 135 -49 252q-47 117 -127 167t-162 50q-80 0 -142.5 -39t-104.5 -104.5t-63.5 -150.5t-21.5 -175z M772 1622q0 49 36 91t107 42q70 0 105 -42t35 -91q0 -51 -35 -93t-105 -42q-72 0 -107.5 42t-35.5 93z" />
<glyph unicode="&#xd7;" horiz-adv-x="1054" d="M129 414l246 262l-246 262l150 158l247 -260l250 260l150 -158l-246 -262l246 -262l-150 -158l-250 260l-247 -260z" />
<glyph unicode="&#xd8;" horiz-adv-x="1378" d="M63 90l138 164q-55 94 -83 203.5t-28 226.5q0 131 37 258t111.5 227.5t186.5 162t261 61.5q111 0 198 -32t156 -87l123 149l168 -147l-147 -178q53 -92 79.5 -201t26.5 -213q0 -209 -88 -383q-61 -131 -169.5 -214t-202 -98.5t-144.5 -15.5q-195 0 -338 113l-119 -145z M354 684q0 -111 31 -205l494 600q-78 74 -193 74q-80 0 -142.5 -39t-104.5 -104.5t-63.5 -150.5t-21.5 -175zM502 279q35 -25 86 -44.5t98 -19.5q82 0 151.5 43t105.5 105.5t50 117.5q31 113 31 203q0 96 -27 197z" />
<glyph unicode="&#xd9;" horiz-adv-x="1337" d="M141 469v897h262v-870q0 -123 69 -202t198 -79t195.5 79t66.5 202v870h262v-897q0 -117 -41 -209t-112.5 -156.5t-167 -98.5t-205.5 -34q-174 0 -299 76q-127 78 -177.5 191.5t-50.5 230.5zM383 1671l121 170l391 -289l-68 -110z" />
<glyph unicode="&#xda;" horiz-adv-x="1337" d="M141 469v897h262v-870q0 -123 69 -202t198 -79t195.5 79t66.5 202v870h262v-897q0 -117 -41 -209t-112.5 -156.5t-167 -98.5t-205.5 -34q-174 0 -299 76q-127 78 -177.5 191.5t-50.5 230.5zM524 1552l391 289l121 -170l-444 -229z" />
<glyph unicode="&#xdb;" horiz-adv-x="1337" d="M141 469v897h262v-870q0 -123 69 -202t198 -79t195.5 79t66.5 202v870h262v-897q0 -117 -41 -209t-112.5 -156.5t-167 -98.5t-205.5 -34q-174 0 -299 76q-127 78 -177.5 191.5t-50.5 230.5zM348 1546l236 266h188l232 -264l-132 -92l-196 197l-197 -199z" />
<glyph unicode="&#xdc;" horiz-adv-x="1337" d="M141 469v897h262v-870q0 -123 69 -202t198 -79t195.5 79t66.5 202v870h262v-897q0 -117 -41 -209t-112.5 -156.5t-167 -98.5t-205.5 -34q-174 0 -299 76q-127 78 -177.5 191.5t-50.5 230.5zM332 1622q0 49 35.5 91t107.5 42q70 0 104.5 -42t34.5 -91q0 -51 -34.5 -93 t-104.5 -42q-72 0 -107.5 42t-35.5 93zM758 1622q0 49 35.5 91t107.5 42q70 0 104.5 -42t34.5 -91q0 -51 -34.5 -93t-104.5 -42q-72 0 -107.5 42t-35.5 93z" />
<glyph unicode="&#xdd;" horiz-adv-x="1130" d="M0 1366h293l280 -543l269 543h288l-430 -817v-549h-262v549zM414 1552l391 289l121 -170l-445 -229z" />
<glyph unicode="&#xde;" horiz-adv-x="1128" d="M150 1366h262v-211h149q98 0 181 -13.5t161 -51.5q98 -49 145.5 -145.5t47.5 -207.5q0 -117 -45 -209q-43 -92 -93.5 -135t-91.5 -61q-68 -29 -138.5 -40t-141.5 -11h-174v-281h-262v1366zM412 516h141q55 0 100 6t78 23q55 27 81 74t26 100q0 57 -29 106t-84 70 q-72 25 -166 25h-147v-404z" />
<glyph unicode="&#xdf;" horiz-adv-x="1224" d="M31 782v205h137q4 145 78 242q80 98 179 131t189 33q109 0 195 -32t145.5 -88t89 -130t29.5 -150v-176h-174q-43 0 -68.5 -19.5t-25.5 -54.5q0 -59 131 -129q84 -49 139 -92q39 -33 66.5 -93t27.5 -132q0 -115 -65 -197q-66 -78 -144.5 -100.5t-119.5 -22.5 q-98 0 -184.5 32t-139.5 79l98 197q39 -33 96.5 -61.5t112.5 -28.5q100 0 101 86q0 51 -34 84.5t-112 72.5q-125 61 -172 124t-47 175q0 61 21.5 112.5t58.5 89.5t85 59.5t97 23.5q-6 70 -49 101.5t-88 42t-57 10.5q-104 0 -155.5 -69t-51.5 -167v-940h-254v782h-135z" />
<glyph unicode="&#xe0;" horiz-adv-x="999" d="M66 291q0 80 33.5 138t88 98t117 61.5t113.5 27.5q29 4 205 25v14q0 82 -42 117t-116 35t-141.5 -32t-102.5 -62l-84 178q43 43 160 82q123 39 211 39q94 0 164.5 -29t117 -81t68 -121.5t21.5 -145.5v-635h-234l-10 74q-41 -45 -104.5 -71t-139.5 -26q-63 0 -121.5 21.5 t-103.5 61.5t-72.5 98.5t-27.5 132.5zM221 1331l121 170l391 -289l-67 -110zM313 297q0 -49 36 -79t102 -30q49 0 95 20.5t79 51.5v201q-125 -14 -166 -21q-82 -16 -114 -56t-32 -87z" />
<glyph unicode="&#xe1;" horiz-adv-x="999" d="M66 291q0 80 33.5 138t88 98t117 61.5t113.5 27.5q29 4 205 25v14q0 82 -42 117t-116 35t-141.5 -32t-102.5 -62l-84 178q43 43 160 82q123 39 211 39q94 0 164.5 -29t117 -81t68 -121.5t21.5 -145.5v-635h-234l-10 74q-41 -45 -104.5 -71t-139.5 -26q-63 0 -121.5 21.5 t-103.5 61.5t-72.5 98.5t-27.5 132.5zM291 1212l391 289l121 -170l-445 -229zM313 297q0 -49 36 -79t102 -30q49 0 95 20.5t79 51.5v201q-125 -14 -166 -21q-82 -16 -114 -56t-32 -87z" />
<glyph unicode="&#xe2;" horiz-adv-x="999" d="M66 291q0 80 33.5 138t88 98t117 61.5t113.5 27.5q29 4 205 25v14q0 82 -42 117t-116 35t-141.5 -32t-102.5 -62l-84 178q43 43 160 82q123 39 211 39q94 0 164.5 -29t117 -81t68 -121.5t21.5 -145.5v-635h-234l-10 74q-41 -45 -104.5 -71t-139.5 -26q-63 0 -121.5 21.5 t-103.5 61.5t-72.5 98.5t-27.5 132.5zM176 1206l236 267h188l231 -265l-131 -92l-196 197l-197 -199zM313 297q0 -49 36 -79t102 -30q49 0 95 20.5t79 51.5v201q-125 -14 -166 -21q-82 -16 -114 -56t-32 -87z" />
<glyph unicode="&#xe3;" horiz-adv-x="999" d="M66 291q0 80 33.5 138t88 98t117 61.5t113.5 27.5q29 4 205 25v14q0 82 -42 117t-116 35t-141.5 -32t-102.5 -62l-84 178q43 43 160 82q123 39 211 39q94 0 164.5 -29t117 -81t68 -121.5t21.5 -145.5v-635h-234l-10 74q-41 -45 -104.5 -71t-139.5 -26q-63 0 -121.5 21.5 t-103.5 61.5t-72.5 98.5t-27.5 132.5zM104 1184q37 104 101.5 167.5t150.5 63.5q53 0 150 -59q82 -57 115 -58q18 0 53 24t67 105l142 -75q-29 -104 -98.5 -169t-157.5 -65q-57 0 -152 62q-84 55 -113 55q-23 0 -54.5 -23.5t-63.5 -105.5zM313 297q0 -49 36 -79t102 -30 q49 0 95 20.5t79 51.5v201q-125 -14 -166 -21q-82 -16 -114 -56t-32 -87z" />
<glyph unicode="&#xe4;" horiz-adv-x="999" d="M66 291q0 80 33.5 138t88 98t117 61.5t113.5 27.5q29 4 205 25v14q0 82 -42 117t-116 35t-141.5 -32t-102.5 -62l-84 178q43 43 160 82q123 39 211 39q94 0 164.5 -29t117 -81t68 -121.5t21.5 -145.5v-635h-234l-10 74q-41 -45 -104.5 -71t-139.5 -26q-63 0 -121.5 21.5 t-103.5 61.5t-72.5 98.5t-27.5 132.5zM160 1282q0 49 35.5 91t107.5 42q70 0 104.5 -42t34.5 -91q0 -51 -34.5 -93t-104.5 -42q-72 0 -107.5 42t-35.5 93zM313 297q0 -49 36 -79t102 -30q49 0 95 20.5t79 51.5v201q-125 -14 -166 -21q-82 -16 -114 -56t-32 -87zM586 1282 q0 49 35.5 91t107.5 42q70 0 104.5 -42t34.5 -91q0 -51 -34.5 -93t-104.5 -42q-72 0 -107.5 42t-35.5 93z" />
<glyph unicode="&#xe5;" horiz-adv-x="999" d="M66 291q0 80 33.5 138t88 98t117 61.5t113.5 27.5q29 4 205 25v14q0 82 -42 117t-116 35t-141.5 -32t-102.5 -62l-84 178q43 43 160 82q123 39 211 39q94 0 164.5 -29t117 -81t68 -121.5t21.5 -145.5v-635h-234l-10 74q-41 -45 -104.5 -71t-139.5 -26q-63 0 -121.5 21.5 t-103.5 61.5t-72.5 98.5t-27.5 132.5zM313 297q0 -49 36 -79t102 -30q49 0 95 20.5t79 51.5v201q-125 -14 -166 -21q-82 -16 -114 -56t-32 -87zM313 1305q0 53 19.5 95t51.5 70.5t71 43t80 14.5q90 0 148 -63.5t58 -157.5q0 -45 -15 -86t-44 -72t-69 -48.5t-87 -17.5 q-92 0 -152.5 62t-60.5 160zM446 1307q0 -41 21.5 -68t58.5 -27q39 0 60.5 27t21.5 68t-21.5 67.5t-60.5 26.5q-37 0 -58.5 -26.5t-21.5 -67.5z" />
<glyph unicode="&#xe6;" horiz-adv-x="1576" d="M66 295q0 129 92 207q98 80 209 100q129 23 194 23h60v55q0 57 -39 92t-105 35q-74 0 -134 -23.5t-122 -70.5l-84 180q61 49 164 84q104 35 186 35q197 0 289 -123q123 123 303 123q166 0 271 -92q106 -92 137 -218q31 -123 31 -227v-45h-639q8 -125 77.5 -180t180.5 -55 q98 0 171.5 30.5t100.5 57.5l68 -207q-45 -33 -86 -47q-31 -14 -121 -33q-86 -18 -168 -19q-104 0 -192.5 36t-151.5 108q-59 -68 -137 -106t-211 -38q-70 0 -132.5 20.5t-109.5 60.5t-74.5 99.5t-27.5 137.5zM317 295q0 -53 34 -82t93 -29q55 0 100.5 28t62 63.5t16.5 60.5 v106h-64q-117 0 -179.5 -44t-62.5 -103zM885 612h375q-6 84 -48.5 129t-80 56.5t-52.5 11.5q-66 0 -125 -49.5t-69 -147.5z" />
<glyph unicode="&#xe7;" horiz-adv-x="948" d="M68 489q0 184 73 312q76 125 182.5 168t196.5 43q156 0 250 -74t137 -158l-188 -127q-31 53 -77 99.5t-120 46.5q-82 0 -142.5 -73t-60.5 -226q0 -147 61.5 -225t178.5 -78q104 0 166.5 31.5t95.5 64.5l74 -209q-55 -41 -150.5 -74t-218.5 -33q-90 0 -173 31t-146.5 94.5 t-101 159.5t-37.5 227zM307 -371l121 281h225l-166 -281h-180z" />
<glyph unicode="&#xe8;" horiz-adv-x="1021" d="M68 494q0 125 35.5 221t98 161.5t145.5 100.5t177 35q166 0 271 -92q106 -92 137 -218q31 -123 31 -227v-45h-639q8 -125 77.5 -180t180.5 -55q98 0 171.5 30.5t100.5 57.5l68 -207q-45 -33 -86 -47q-25 -12 -121 -31q-94 -20 -168 -21q-96 0 -183.5 31t-153 95.5 t-104 161t-38.5 229.5zM260 1331l121 170l391 -289l-67 -110zM330 612h375q-6 84 -48.5 129t-81 56.5t-51.5 11.5q-66 0 -125 -49.5t-69 -147.5z" />
<glyph unicode="&#xe9;" horiz-adv-x="1021" d="M68 494q0 125 35.5 221t98 161.5t145.5 100.5t177 35q166 0 271 -92q106 -92 137 -218q31 -123 31 -227v-45h-639q8 -125 77.5 -180t180.5 -55q98 0 171.5 30.5t100.5 57.5l68 -207q-45 -33 -86 -47q-25 -12 -121 -31q-94 -20 -168 -21q-96 0 -183.5 31t-153 95.5 t-104 161t-38.5 229.5zM328 1212l391 289l121 -170l-445 -229zM330 612h375q-6 84 -48.5 129t-81 56.5t-51.5 11.5q-66 0 -125 -49.5t-69 -147.5z" />
<glyph unicode="&#xea;" horiz-adv-x="1021" d="M68 494q0 125 35.5 221t98 161.5t145.5 100.5t177 35q166 0 271 -92q106 -92 137 -218q31 -123 31 -227v-45h-639q8 -125 77.5 -180t180.5 -55q98 0 171.5 30.5t100.5 57.5l68 -207q-45 -33 -86 -47q-25 -12 -121 -31q-94 -20 -168 -21q-96 0 -183.5 31t-153 95.5 t-104 161t-38.5 229.5zM188 1206l236 267h188l232 -265l-131 -92l-197 197l-197 -199zM330 612h375q-6 84 -48.5 129t-81 56.5t-51.5 11.5q-66 0 -125 -49.5t-69 -147.5z" />
<glyph unicode="&#xeb;" horiz-adv-x="1021" d="M68 494q0 125 35.5 221t98 161.5t145.5 100.5t177 35q166 0 271 -92q106 -92 137 -218q31 -123 31 -227v-45h-639q8 -125 77.5 -180t180.5 -55q98 0 171.5 30.5t100.5 57.5l68 -207q-45 -33 -86 -47q-25 -12 -121 -31q-94 -20 -168 -21q-96 0 -183.5 31t-153 95.5 t-104 161t-38.5 229.5zM190 1282q0 49 36 91t108 42q70 0 104.5 -42t34.5 -91q0 -51 -35 -93t-104 -42q-72 0 -108 42t-36 93zM330 612h375q-6 84 -48.5 129t-81 56.5t-51.5 11.5q-66 0 -125 -49.5t-69 -147.5zM616 1282q0 49 36 91t108 42q70 0 104.5 -42t34.5 -91 q0 -51 -35 -93t-104 -42q-72 0 -108 42t-36 93z" />
<glyph unicode="&#xec;" horiz-adv-x="505" d="M0 1331l121 170l391 -289l-68 -110zM127 0v987h252v-987h-252z" />
<glyph unicode="&#xed;" horiz-adv-x="505" d="M-2 1212l391 289l121 -170l-444 -229zM127 0v987h252v-987h-252z" />
<glyph unicode="&#xee;" horiz-adv-x="505" d="M-66 1206l236 267h188l232 -265l-131 -92l-197 197l-196 -199zM127 0v987h252v-987h-252z" />
<glyph unicode="&#xef;" horiz-adv-x="505" d="M-92 1282q0 49 36 91t107 42q70 0 104.5 -42t34.5 -91q0 -51 -34.5 -93t-104.5 -42q-72 0 -107.5 42t-35.5 93zM127 0v987h252v-987h-252zM334 1282q0 49 36 91t107 42q70 0 104.5 -42t34.5 -91q0 -51 -34.5 -93t-104.5 -42q-72 0 -107.5 42t-35.5 93z" />
<glyph unicode="&#xf0;" horiz-adv-x="1107" d="M76 492q0 164 61 286q63 123 159.5 173t203.5 50q49 0 95 -12t85 -39q-41 92 -158 162q-115 70 -223 88l39 193q78 -14 146.5 -36t127.5 -54l113 151l149 -119l-108 -145q84 -72 137 -167t83 -189.5t38 -174t8 -118.5q0 -127 -30.5 -230.5t-90 -177.5t-149.5 -113.5 t-207 -39.5q-96 0 -183 31.5t-152.5 96t-104.5 161t-39 223.5zM324 494q0 -74 19 -129.5t51 -93.5t72 -56t83 -18q45 0 86 22.5t71.5 65.5t47 99t16.5 118q0 59 -12.5 126.5t-28.5 106.5q-88 51 -178 51q-98 0 -162.5 -72.5t-64.5 -219.5z" />
<glyph unicode="&#xf1;" horiz-adv-x="1130" d="M127 0v987h231l13 -78q59 49 134 76t150 27q119 0 203 -53.5t118 -157t34 -217.5v-584h-254v563q0 113 -46 174.5t-132 61.5q-59 0 -109.5 -31t-87.5 -68v-700h-254zM174 1184q37 104 101.5 167.5t150.5 63.5q53 0 149 -59q82 -57 115 -58q18 0 53 24t68 105l141 -75 q-29 -104 -98.5 -169t-157.5 -65q-57 0 -151 62q-84 55 -113 55q-23 0 -54.5 -23.5t-64.5 -105.5z" />
<glyph unicode="&#xf2;" horiz-adv-x="1081" d="M68 498q0 150 65 276q68 127 178.5 182.5t229.5 55.5q166 0 280 -90q113 -88 152 -209q41 -127 41 -215q0 -150 -68 -279q-51 -100 -134 -157.5t-154.5 -71t-116.5 -13.5q-119 0 -208 45.5t-147.5 119t-88 167t-29.5 189.5zM287 1331l121 170l391 -289l-68 -110zM317 498 q0 -63 14.5 -117.5t42 -95.5t69.5 -64.5t98 -23.5q7 0 13 -1q57 0 97 32q45 36 71 85t36 102q7 37 7 63q0 11 -1 20q0 111 -46 186.5t-98 94.5q-47 18 -74 18h-5q-86 0 -144 -62q-47 -51 -63.5 -113.5t-16.5 -123.5z" />
<glyph unicode="&#xf3;" horiz-adv-x="1081" d="M68 498q0 150 65 276q68 127 178.5 182.5t229.5 55.5q166 0 280 -90q113 -88 152 -209q41 -127 41 -215q0 -150 -68 -279q-51 -100 -134 -157.5t-154.5 -71t-116.5 -13.5q-119 0 -208 45.5t-147.5 119t-88 167t-29.5 189.5zM317 498q0 -63 14.5 -117.5t42 -95.5 t69.5 -64.5t98 -23.5q7 0 13 -1q57 0 97 32q45 36 71 85t36 102q7 37 7 63q0 11 -1 20q0 111 -46 186.5t-98 94.5q-47 18 -74 18h-5q-86 0 -144 -62q-47 -51 -63.5 -113.5t-16.5 -123.5zM330 1212l391 289l121 -170l-445 -229z" />
<glyph unicode="&#xf4;" horiz-adv-x="1081" d="M68 498q0 150 65 276q68 127 178.5 182.5t229.5 55.5q166 0 280 -90q113 -88 152 -209q41 -127 41 -215q0 -150 -68 -279q-51 -100 -134 -157.5t-154.5 -71t-116.5 -13.5q-119 0 -208 45.5t-147.5 119t-88 167t-29.5 189.5zM209 1206l235 267h189l231 -265l-131 -92 l-196 197l-197 -199zM317 498q0 -63 14.5 -117.5t42 -95.5t69.5 -64.5t98 -23.5q7 0 13 -1q57 0 97 32q45 36 71 85t36 102q7 37 7 63q0 11 -1 20q0 111 -46 186.5t-98 94.5q-47 18 -74 18h-5q-86 0 -144 -62q-47 -51 -63.5 -113.5t-16.5 -123.5z" />
<glyph unicode="&#xf5;" horiz-adv-x="1081" d="M68 498q0 150 65 276q68 127 178.5 182.5t229.5 55.5q166 0 280 -90q113 -88 152 -209q41 -127 41 -215q0 -150 -68 -279q-51 -100 -134 -157.5t-154.5 -71t-116.5 -13.5q-119 0 -208 45.5t-147.5 119t-88 167t-29.5 189.5zM139 1184q37 104 101.5 167.5t150.5 63.5 q53 0 150 -59q82 -57 114 -58q18 0 53 24t68 105l142 -75q-29 -104 -98.5 -169t-157.5 -65q-57 0 -152 62q-84 55 -113 55q-23 0 -54.5 -23.5t-63.5 -105.5zM317 498q0 -63 14.5 -117.5t42 -95.5t69.5 -64.5t98 -23.5q7 0 13 -1q57 0 97 32q45 36 71 85t36 102q7 37 7 63 q0 11 -1 20q0 111 -46 186.5t-98 94.5q-47 18 -74 18h-5q-86 0 -144 -62q-47 -51 -63.5 -113.5t-16.5 -123.5z" />
<glyph unicode="&#xf6;" horiz-adv-x="1081" d="M68 498q0 150 65 276q68 127 178.5 182.5t229.5 55.5q166 0 280 -90q113 -88 152 -209q41 -127 41 -215q0 -150 -68 -279q-51 -100 -134 -157.5t-154.5 -71t-116.5 -13.5q-119 0 -208 45.5t-147.5 119t-88 167t-29.5 189.5zM199 1282q0 49 35.5 91t107.5 42 q70 0 104.5 -42t34.5 -91q0 -51 -34.5 -93t-104.5 -42q-72 0 -107.5 42t-35.5 93zM317 498q0 -63 14.5 -117.5t42 -95.5t69.5 -64.5t98 -23.5q7 0 13 -1q57 0 97 32q45 36 71 85t36 102q7 37 7 63q0 11 -1 20q0 111 -46 186.5t-98 94.5q-47 18 -74 18h-5q-86 0 -144 -62 q-47 -51 -63.5 -113.5t-16.5 -123.5zM625 1282q0 49 35.5 91t107.5 42q70 0 104.5 -42t34.5 -91q0 -51 -34.5 -93t-104.5 -42q-72 0 -107.5 42t-35.5 93z" />
<glyph unicode="&#xf7;" d="M45 563v225h959v-225h-959zM371 309q0 63 44 111.5t111.5 48.5t111.5 -48t44 -112q0 -66 -44 -114t-111.5 -48t-111.5 48t-44 114zM371 1069.5q0 63.5 44 112.5t111.5 49t111.5 -49t44 -112.5t-44 -113t-111.5 -49.5t-111.5 49.5t-44 113z" />
<glyph unicode="&#xf8;" horiz-adv-x="1081" d="M68 498q0 150 65 276q68 127 178.5 182.5t229.5 55.5q106 0 213 -47l73 114l134 -96l-76 -119q66 -74 97.5 -168t31.5 -198q0 -150 -68 -279q-51 -100 -134 -157.5t-154.5 -71t-116.5 -13.5q-113 0 -197 39l-80 -125l-133 97l80 125q-72 76 -107.5 177.5t-35.5 207.5z M315 498q0 -92 29 -174l293 456h2q-39 20 -98 21h-11q-83 0 -135 -60q-55 -61 -68 -131q-12 -60 -12 -100v-12zM469 203q37 -10 72 -10q4 0 8 -1q58 0 99 29q44 31 70.5 77t38.5 100q10 46 9 86v14q0 74 -18 145z" />
<glyph unicode="&#xf9;" horiz-adv-x="1126" d="M121 399v588h254v-561q0 -102 37 -165.5t127 -63.5q74 0 125 29.5t81 56.5v704h254v-987h-233l-8 78q-68 -57 -140.5 -77.5t-142.5 -20.5q-174 0 -264 104t-90 315zM293 1331l121 170l391 -289l-68 -110z" />
<glyph unicode="&#xfa;" horiz-adv-x="1126" d="M121 399v588h254v-561q0 -102 37 -165.5t127 -63.5q74 0 125 29.5t81 56.5v704h254v-987h-233l-8 78q-68 -57 -140.5 -77.5t-142.5 -20.5q-174 0 -264 104t-90 315zM375 1212l391 289l121 -170l-445 -229z" />
<glyph unicode="&#xfb;" horiz-adv-x="1126" d="M121 399v588h254v-561q0 -102 37 -165.5t127 -63.5q74 0 125 29.5t81 56.5v704h254v-987h-233l-8 78q-68 -57 -140.5 -77.5t-142.5 -20.5q-174 0 -264 104t-90 315zM244 1206l235 267h189l231 -265l-131 -92l-197 197l-196 -199z" />
<glyph unicode="&#xfc;" horiz-adv-x="1126" d="M121 399v588h254v-561q0 -102 37 -165.5t127 -63.5q74 0 125 29.5t81 56.5v704h254v-987h-233l-8 78q-68 -57 -140.5 -77.5t-142.5 -20.5q-174 0 -264 104t-90 315zM209 1282q0 49 36 91t107 42q70 0 105 -42t35 -91q0 -51 -35 -93t-105 -42q-72 0 -107.5 42t-35.5 93z M635 1282q0 49 36 91t107 42q70 0 105 -42t35 -91q0 -51 -35 -93t-105 -42q-72 0 -107.5 42t-35.5 93z" />
<glyph unicode="&#xfd;" horiz-adv-x="1030" d="M8 987h273l274 -758q88 233 119 351q78 287 106 407h250q-76 -301 -161 -544.5t-171 -417.5q-82 -156 -147 -242q-66 -80 -190.5 -126t-284.5 -48l-23 227q111 0 198 26.5t134 86.5q8 10 14.5 22.5t14.5 24.5zM336 1212l391 289l121 -170l-445 -229z" />
<glyph unicode="&#xfe;" horiz-adv-x="1130" d="M141 -387v1753h254v-444q35 33 91.5 61.5t131.5 28.5q141 0 239.5 -86t133.5 -209q35 -129 35 -221q0 -156 -69.5 -284t-184.5 -181.5t-244 -53.5q-61 0 -131 29v-393h-256zM395 227q68 -29 119 -28h9q70 0 119 28q52 31 83 76t43 96q11 44 11 81q0 6 -1 12 q2 90 -34.5 170.5t-87.5 110.5q-44 26 -81 26h-10q-53 0 -100 -30t-70 -64v-478z" />
<glyph unicode="&#xff;" horiz-adv-x="1030" d="M8 987h273l274 -758q88 233 119 351q78 287 106 407h250q-76 -301 -161 -544.5t-171 -417.5q-82 -156 -147 -242q-66 -80 -190.5 -126t-284.5 -48l-23 227q111 0 198 26.5t134 86.5q8 10 14.5 22.5t14.5 24.5zM195 1282q0 49 35.5 91t107.5 42q70 0 104.5 -42t34.5 -91 q0 -51 -34.5 -93t-104.5 -42q-72 0 -107.5 42t-35.5 93zM621 1282q0 49 35.5 91t107.5 42q70 0 104.5 -42t34.5 -91q0 -51 -34.5 -93t-104.5 -42q-72 0 -107.5 42t-35.5 93z" />
<glyph unicode="&#x152;" horiz-adv-x="1884" d="M80 682q0 160 51 286t142.5 215t215 136t269.5 47h1026v-248h-629v-311h520v-248h-520v-311h674v-248h-1071q-154 0 -279 48t-214 137t-137 215t-48 282zM352 684q0 -96 31 -176t84 -138.5t124 -90t152 -31.5h150v870h-150h-9q-91 0 -162 -38q-75 -40 -125 -102.5 t-74 -140.5q-21 -68 -21 -132q-1 -10 0 -21z" />
<glyph unicode="&#x153;" horiz-adv-x="1695" d="M68 498q0 150 65 276q68 127 178.5 182.5t229.5 55.5q117 0 199.5 -45t136.5 -123q57 78 137 123t184 45q166 0 270 -92q106 -92 138 -218q31 -123 30 -227v-45h-639q8 -125 78 -180t180 -55q98 0 172 30.5t101 57.5l67 -207q-45 -33 -86 -47q-27 -12 -120 -33 q-90 -18 -168 -19q-111 0 -206 42t-147 122q-51 -66 -131 -115t-209 -49q-115 0 -200.5 45.5t-144 119t-87 167t-28.5 189.5zM317 498q0 -63 14.5 -117.5t42 -95.5t69.5 -64.5t98 -23.5q66 0 110.5 33.5t70.5 83t34 101.5t8 83q0 111 -46 186.5t-98 94.5q-47 18 -74 18h-5 q-86 0 -144 -62q-47 -51 -63.5 -113.5t-16.5 -123.5zM1004 612h374q-6 78 -45 123t-79 59.5t-56 14.5q-66 0 -125 -49.5t-69 -147.5z" />
<glyph unicode="&#x178;" horiz-adv-x="1130" d="M0 1366h293l280 -543l269 543h288l-430 -817v-549h-262v549zM244 1622q0 49 35.5 91t107.5 42q70 0 104.5 -42t34.5 -91q0 -51 -34.5 -93t-104.5 -42q-72 0 -107.5 42t-35.5 93zM670 1622q0 49 35.5 91t107.5 42q70 0 104.5 -42t34.5 -91q0 -51 -34.5 -93t-104.5 -42 q-72 0 -107.5 42t-35.5 93z" />
<glyph unicode="&#x2c6;" horiz-adv-x="905" d="M100 1206l236 267h188l232 -265l-131 -92l-197 197l-197 -199z" />
<glyph unicode="&#x2dc;" horiz-adv-x="905" d="M43 1184q37 104 101.5 167.5t150.5 63.5q53 0 149 -59q82 -57 115 -58q18 0 53 24t68 105l141 -75q-29 -104 -98.5 -169t-157.5 -65q-57 0 -151 62q-84 55 -113 55q-23 0 -54.5 -23.5t-64.5 -105.5z" />
<glyph unicode="&#x2013;" horiz-adv-x="1024" d="M0 418v192h1026v-192h-1026z" />
<glyph unicode="&#x2014;" horiz-adv-x="2048" d="M0 418v192h2048v-192h-2048z" />
<glyph unicode="&#x2018;" horiz-adv-x="442" d="M68 1188q0 80 38.5 131t110.5 51q70 0 106.5 -44t36.5 -101q0 -61 -37.5 -103.5t-86.5 -46.5q4 -35 34.5 -74.5t65.5 -68.5l-68 -92q-111 86 -155.5 179t-44.5 169z" />
<glyph unicode="&#x2019;" horiz-adv-x="452" d="M92 1221q0 57 37 101t107 44q72 0 110.5 -51t38.5 -131q0 -76 -45 -169t-156 -179l-67 92q35 29 65.5 68.5t34.5 74.5q-49 4 -87 46.5t-38 103.5z" />
<glyph unicode="&#x201a;" horiz-adv-x="417" d="M53 160q0 57 37 101t107 44q72 0 110.5 -51t38.5 -131q0 -76 -45 -169t-156 -179l-67 92q35 29 65.5 68.5t34.5 74.5q-49 4 -87 46.5t-38 103.5z" />
<glyph unicode="&#x201c;" horiz-adv-x="849" d="M68 1188q0 80 38.5 131t110.5 51q70 0 106.5 -44t36.5 -101q0 -61 -37.5 -103.5t-86.5 -46.5q4 -35 34.5 -74.5t65.5 -68.5l-68 -92q-111 86 -155.5 179t-44.5 169zM475 1188q0 80 39 131t111 51q70 0 106.5 -44t36.5 -101q0 -61 -38 -103.5t-87 -46.5q4 -35 35 -74.5 t65 -68.5l-67 -92q-111 86 -156 179t-45 169z" />
<glyph unicode="&#x201d;" horiz-adv-x="860" d="M92 1221q0 57 37 101t107 44q72 0 110.5 -51t38.5 -131q0 -76 -45 -169t-156 -179l-67 92q35 29 65.5 68.5t34.5 74.5q-49 4 -87 46.5t-38 103.5zM500 1221q0 57 36.5 101t106.5 44q72 0 111 -51t39 -131q0 -76 -45.5 -169t-155.5 -179l-68 92q35 29 66 68.5t35 74.5 q-49 4 -87 46.5t-38 103.5z" />
<glyph unicode="&#x201e;" horiz-adv-x="825" d="M53 160q0 57 37 101t107 44q72 0 110.5 -51t38.5 -131q0 -76 -45 -169t-156 -179l-67 92q35 29 65.5 68.5t34.5 74.5q-49 4 -87 46.5t-38 103.5zM461 160q0 57 37 101t106 44q72 0 111 -51t39 -131q0 -76 -45 -169t-156 -179l-68 92q35 29 66 68.5t35 74.5 q-49 4 -87 46.5t-38 103.5z" />
<glyph unicode="&#x2022;" horiz-adv-x="1052" d="M102 788q0 127 70 228q70 104 168 149t186 45q127 0 228 -69q104 -70 150 -168.5t46 -184.5t-33.5 -162.5t-91 -134t-135.5 -91t-164 -33.5t-163.5 33.5t-135 91t-91.5 134t-34 162.5z" />
<glyph unicode="&#x2026;" horiz-adv-x="1335" d="M74 125q0 57 35.5 103t107.5 46t106.5 -46t34.5 -103q0 -55 -34.5 -101.5t-106.5 -46.5t-107.5 46.5t-35.5 101.5zM526 125q0 57 36 103t107.5 46t106.5 -46t35 -103q0 -55 -35 -101.5t-106.5 -46.5t-107.5 46.5t-36 101.5zM979 125q0 57 36 103t107.5 46t106.5 -46 t35 -103q0 -55 -35 -101.5t-106.5 -46.5t-107.5 46.5t-36 101.5z" />
<glyph unicode="&#x2039;" horiz-adv-x="673" d="M29 512l403 434l168 -139l-278 -283l305 -276l-156 -156z" />
<glyph unicode="&#x203a;" horiz-adv-x="673" d="M47 248l305 276l-278 283l168 139l401 -434l-440 -420z" />
<glyph unicode="&#x20ac;" d="M66 909h118q12 125 78 248q68 117 168 170t223 53q121 0 209 -43t133 -94t58 -63l-154 -183q-45 78 -95 111t-128 33q-86 0 -131 -51q-55 -59 -72 -181h266v-161h-673v161zM66 481v162h673v-162h-270q6 -47 16.5 -95t35 -87t66.5 -62.5t113 -23.5q90 0 150.5 40t101.5 79 l99 -213q-84 -78 -170 -110t-209 -32q-127 0 -216 46.5t-147.5 119t-88.5 162.5t-40 176h-114z" />
<glyph unicode="&#x2122;" horiz-adv-x="1277" d="M37 1204v162h461v-162h-156v-426h-149v426h-156zM573 778v588h181l123 -375l116 375h176v-588h-145v303l-104 -307h-89l-110 301v-297h-148z" />
<glyph unicode="&#xe000;" horiz-adv-x="985" d="M0 985h985v-985h-985v985z" />
<glyph unicode="&#xfb01;" horiz-adv-x="1122" d="M31 782v205h131v35q0 147 66.5 232t164.5 114q88 27 174 27q127 0 208 -27t134 -59l-96 -201q-39 27 -98.5 44t-129 17t-120.5 -34.5t-51 -122.5v-25h213v-205h-211v-782h-254v782h-131zM741 0v987h254v-987h-254z" />
<glyph unicode="&#xfb02;" horiz-adv-x="1239" d="M31 782v205h133v31q0 158 90 244q88 88 203 108q129 23 198 23q8 0 45 -3.5t103 -7.5q102 -8 186 -28v-1065q0 -53 21.5 -72.5t60.5 -19.5t82 18l45 -192q-8 -8 -74 -27q-61 -18 -127 -19q-84 0 -136 26t-80.5 66t-37 87t-8.5 84v931q-49 6 -108 7q-92 0 -152.5 -37 t-60.5 -123v-31h198v-205h-196v-782h-254v782h-131z" />
<glyph unicode="&#xfb03;" horiz-adv-x="1808" d="M31 782v205h131v53q0 143 59 228q57 86 135 104q74 20 131 21q92 0 152.5 -17.5t71.5 -23.5l-29 -211q-12 6 -48 17t-95 11q-53 0 -89 -31.5t-36 -103.5v-47h213v-205h-211v-782h-254v782h-131zM682 782v205h131v53q0 143 59 228q57 86 136 104q74 20 131 21 q92 0 152.5 -17.5t70.5 -23.5l-29 -211q-12 6 -48 17t-95 11q-53 0 -89 -31.5t-36 -103.5v-47h213v-205h-211v-782h-254v782h-131zM1403 1225q0 53 38 98t115 45q76 0 114 -45t38 -98q0 -55 -38 -100.5t-114 -45.5q-78 0 -115.5 45.5t-37.5 100.5zM1430 0v987h251v-987h-251 z" />
<glyph unicode="&#xfb04;" horiz-adv-x="1933" d="M31 782v205h131v53q0 143 59 228q57 86 135 104q74 20 131 21q92 0 152.5 -17.5t71.5 -23.5l-29 -211q-12 6 -48 17t-95 11q-53 0 -89 -31.5t-36 -103.5v-47h213v-205h-211v-782h-254v782h-131zM682 782v205h131v53q0 143 59 228q57 86 136 104q74 20 131 21 q92 0 152.5 -17.5t70.5 -23.5l-29 -211q-12 6 -48 17t-95 11q-53 0 -89 -31.5t-36 -103.5v-47h213v-205h-211v-782h-254v782h-131zM1430 240v1126h253v-1077q0 -53 21.5 -72.5t60.5 -19.5t82 18l45 -192q-8 -8 -73 -27q-61 -18 -127 -19q-84 0 -136.5 26t-81 66t-36.5 87 t-8 84z" />
</font>
</defs>
</svg>
